Vše od zvrhlíka Homera

VAROVÁNÍ:Některé rubriky na těchto stránkách by neměli vidět slabší povahy a lidi mladší 18.let!!!

Chat

Návštěvnost

TOPlist

Novinky

Kalendář

Novinky na webu

Hledej na seznamu




S e z n a m

Hledej na Googlu

Seznam slovník

SLOVNÍK
Čj > Aj Aj > Čj
 
 
 

Kalkulačka






Vtipy

Filmy Dabované

3:15 zemřeš (2005)


Info:


Horor / Thriller / Drama / Mysteriózní
USA, 2005, 90 min

13. listopadu 1974 obdržela policie šílený telefonát, který je zavedl do Ocean Avenue 112 v Amityville, Long Island. Uvnitř rozlehlého domu se jim naskytla děsivá scéna - celá rodina DeFeových byla zavražděna. V následujících dnech se Ronald DeFeo, Jr. přiznal k tomu, že postupně zastřelil své rodiče a čtyři sourozence, a tvrdil, že hlasy v domě ho vedly ke spáchání těchto hrůzných vražd. O rok později se George a Kathy Lutzovi a jejich děti stěhují do tohoto domu a věří, že bude jejich vysněným domovem. Ale krátce poté, co se zabydlí, začnou se dít podivné a nevysvětlitelné věci, ze všech koutů domu se ozývají podivné hlasy...

Kvalita:
Formát : AVI
Formát/Info : Audio Video Interleave
Velikost souboru : 703 MiB
Duration : 1h 25mn
Celkový BitRate : 1 147 Kbps
Použitý software : VirtualDubMod 1.5.4.1 (build 2178/release)
Enkódoval : VirtualDubMod build 2178/release
IAS1 : Czech

Video
Formát : MPEG-4 Visual
Format profile : Streaming Video@L1
Format settings, BVOP : Ano
Format settings, QPel : Ne
Format settings, GMC : No warppoints
Format settings, Matrix : Custom
Codec ID : XVID
Codec ID/Hint : XviD
Duration : 1h 25mn
Bit rate : 1 018 Kbps
Šířka : 640pixely
Výška : 272pixely
Poměr stran : 2.35
Frame rate : 25,000 fps
Rozlišení : 24 bits
Colorimetry : 4:2:0
Scan type : Progressive
Bits/(Pixel*Frame) : 0.234
Stream size : 624 MiB (89%)
Enkódoval : XviD 1.2.0.dev47 (UTC 2006-11-01)

Audio
Formát : MPEG Audio
Format version : Version 1
Format profile : Layer 3
Codec ID : 55
Codec ID/Hint : MP3
Duration : 1h 25mn
Bit rate mode : Variable
Bit rate : 116 Kbps
Minimum bit rate : 128 Kbps
Kanál(y) : 2 kanály
Sampling rate : 48,0 KHz
Rozlišení : 16 bits
Stream size : 71,3 MiB (10%)
Alignment : Aligned on interleaves
Interleave, duration : 24 ms (0,60 video frame)
Interleave, preload duration : 158 ms
Enkódoval : LAME3.97
Nastavení enkoderu : ABR

Stahuj z czshare:

http://czshare.com/files/352160/4y3R/

Stahuj z rapidshare:

http://rapidshare.com/files/136387851/3_15_zemres.part1.rar
http://rapidshare.com/files/136398802/3_15_zemres.part2.rar
http://rapidshare.com/files/136408569/3_15_zemres.part3.rar
http://rapidshare.com/files/136418325/3_15_zemres.part4.rar
http://rapidshare.com/files/136427129/3_15_zemres.part5.rar
http://rapidshare.com/files/136435499/3_15_zemres.part6.rar
http://rapidshare.com/files/136443286/3_15_zemres.part7.rar
http://rapidshare.com/files/136451825/3_15_zemres.part8.rar
Žádné komentáře